Torrent details for "Ted (2012)Mp-4-X264-Dvd-Rip-480p-AAC-DSD"    Log in to bookmark

Loading...
Loading...
Torrent details
Cover
Download
Torrent rating (0 rated)
Controls:
Category:
Language:
English English
Total Size:
1.13 GB
Info Hash:
abdf174eb813f08e0c0e812a051446e5e15d45d9
Added By:
Added:  
30-06-2020 04:36
Views:
63
Health:
Seeds:
2
Leechers:
0
Completed:
5

File List (1) : 
Genre:
Comedy
Runtime:
106 min    -    Rating: 6.9
Plot:
John makes a Christmas miracle happen by bringing his one and only friend to life, his teddy bear. The two grow up together and John must then choose to stay with his girlfriend or keep his friendship with his crude and extremely inappropriate teddy bear, Ted.

Description




Ted (2012)
480p Dvd Rip
Hash Code:
ABDF174EB813F08E0C0E812A051446E5E15D45D9








^Tap on image above for IMDb Info for this film^

General
Complete name                            : TED_Title1.mp4
Format                                   : MPEG-4
Format profile                           : Base Media
Codec ID                                 : isom (isom/iso2/avc1/mp41)
File size                                : 1.13 GiB
Duration                                 : 1 h 52 min
Overall bit rate                         : 1 441 kb/s
Movie name                               : TED
Genre                                    : Comedy
Writing application                      : Lavf54.6.100

Video
ID                                       : 1
Format                                   : AVC
Format/Info                              : Advanced Video Codec
Format profile                           : Baseline@L3
Format settings                          : 6 Ref Frames
Format settings, CABAC                   : No
Format settings, Reference frames        : 6 frames
Codec ID                                 : avc1
Codec ID/Info                            : Advanced Video Coding
Duration                                 : 1 h 52 min
Bit rate                                 : 1 194 kb/s
Width                                    : 720 pixels
Height                                   : 404 pixels
Display aspect ratio                     : 16:9
Frame rate mode                          : Constant
Frame rate                               : 29.970 (30000/1001) FPS
Color space                              : YUV
Chroma subsampling                       : 4:2:0
Bit depth                                : 8 bits
Scan type                                : Progressive
Bits/(Pixel*Frame)                       : 0.137
Stream size                              : 959 MiB (83%)
Codec configuration box                  : avcC

Audio
ID                                       : 2
Format                                   : AAC LC
Format/Info                              : Advanced Audio Codec Low Complexity
Codec ID                                 : mp4a-40-2
Duration                                 : 1 h 52 min
Bit rate mode                            : Constant
Bit rate                                 : 240 kb/s
Channel(s)                               : 6 channels
Channel layout                           : C L R Ls Rs LFE
Sampling rate                            : 44.1 kHz
Frame rate                               : 43.066 FPS (1024 SPF)
Compression mode                         : Lossy
Stream size                              : 193 MiB (17%)
Default                                  : Yes
Alternate group                          : 1

  User comments

No comments have been posted yet.


Post anonymous comment
:) :( :D :P :-) B) 8o :? 8) ;) :-* :-( :| O:-D :-@ :facepalm :o) brb :warn :help :bad :love :idea :bomb :!


CAPTCHA Image 

  Sitefriends