Torrent details for "Glastonbury 2000 - David Bowie (1280x720p HD, 50fps, soft Eng subs) "    Log in to bookmark

Loading...
Loading...
Torrent details
Cover
Download
Torrent rating (0 rated)
Controls:
Category:
Language:
English English
Total Size:
4.14 GB
Info Hash:
2cb11d83855001b41010e535606f7d5287a85c03
Added By:
Added:  
30-06-2020 02:27
Views:
111
Health:
Seeds:
17
Leechers:
9
Completed:
41

File List (8) : 
Title:
Genre:
Documentary, Music
Runtime:
138 min    -    Rating: 6.6
Director:
Plot:
A documentary on the 30th anniversary of Britain's best-known music festival.

Description
Glastonbury 2000 - David Bowie (1280x720p HD, 50fps, soft Eng subs)

On Sunday 25 June 2000, David Bowie closed Glastonbury with a spectacular two-hour show, his first performance at the festival since 1971. /  / At Bowie's insistence, only half an hour or so of that stunning set was broadcast on BBC television that night, but fortunately the cameras kept rolling and captured the whole set. This special programme shows Bowie's performance in full, featuring familiar hits including Ashes to Ashes, Starman and Let's Dance.

First broadcast:  28 June 2020
Duration:  115 minutes

Torrent dead? Request reseed at torrentgalaxy.org - or ask at elsonroa at tutanota.com



Media info:
General
Format : MPEG-4
Format profile : Base Media
Codec ID : isom (isom/iso2/avc1/mp41)
File size : 4.13 GiB
Duration : 1h 55mn
Overall bit rate mode : Variable
Overall bit rate : 5 133 Kbps

Video
ID : 1
Format : AVC
Format/Info : Advanced Video Codec
Format profile : High@L3.2
Format settings, CABAC : Yes
Format settings, ReFrames : 4 frames
Codec ID : avc1
Codec ID/Info : Advanced Video Coding
Duration : 1h 55mn
Bit rate : 4 994 Kbps
Width : 1 280 pixels
Height : 720 pixels
Display aspect ratio : 16:9
Frame rate mode : Constant
Frame rate : 50.000 fps
Color space : YUV
Chroma subsampling : 4:2:0
Bit depth : 8 bits
Scan type : Progressive
Bits/(Pixel*Frame) : 0.108
Stream size : 4.02 GiB (97%)
Encoded date : UTC 1904-01-01 00:00:00
Tagged date : UTC 1904-01-01 00:00:00
Color range : Limited
Color primaries : BT.709
Transfer characteristics : BT.709
Matrix coefficients : BT.709

Audio
ID : 2
Format : AAC
Format/Info : Advanced Audio Codec
Format profile : LC
Codec ID : 40
Duration : 1h 55mn
Bit rate mode : Variable
Bit rate : 128 Kbps
Maximum bit rate : 131 Kbps
Channel(s) : 2 channels
Channel positions : Front: L R
Sampling rate : 48.0 KHz
Frame rate : 46.875 fps (1024 spf)
Compression mode : Lossy
Stream size : 106 MiB (2%)
Language : English


Similar torrents

  No similar torrents were found.

  User comments

Guest-3334
Posted: 2020-06-30 11:33:07 (4Days ago) Report
Guest user
avatar
Reppoints: -100
thank you thank you thank you for uploading the whole glastonbury stuff especially this rare bowie set!! if i may request another one; pls consider uploading garsington opera's excellent production of britten's turn of the screw. thanks


Post anonymous comment
:) :( :D :P :-) B) 8o :? 8) ;) :-* :-( :| O:-D :-@ :facepalm :o) brb :warn :help :bad :love :idea :bomb :!


CAPTCHA Image 

  Sitefriends