Torrent details for "Black Panther (2018) [2160p] [HDR] (bluray) [WMAN-LorD]"    Log in to bookmark

Loading...
Loading...
Torrent details
Cover
Download
Torrent rating (0 rated)
Controls:
Category:
Language:
English English
Total Size:
5.32 GB
Info Hash:
5a3ef4af30ec47602b947c30771fb9d7930c7d6f
Added By:
Added:  
23-05-2020 01:08
Views:
192
Health:
Seeds:
87
Leechers:
40
Completed:
527

File List (2) : 
Title:
Genre:
Action, Adventure, Sci-Fi
Runtime:
134 min    -    Rating: 7.7
Director:
Plot:
After the events of Captain America: Civil War, King T'Challa returns home to the reclusive, technologically advanced African nation of Wakanda to serve as his country's new leader. However, T'Challa soon finds that he is challenged for the throne from factions within his own country. When two foes conspire to destroy Wakanda, the hero known as Black Panther must team up with C.I.A. agent Everett K. Ross and members of the Dora Milaje, Wakandan special forces, to prevent Wakanda from being dragged into a world war.

Description
Release info:
>Encoded by: [WMAN-LorD]
>HDR working!
>Source: Blu-ray Original 4k HDR












[code]
General
Unique ID                   : 265832692912423746404695092188926964910 (0xC7FD83AC4AAF92B1793A47AD2E33F4AE)
Complete name               : Black.Panther.2018.2160p.UHD.HDR.BluRay.x265.10bit.DD5.1.[WMAN-LorD].mkv
Format                      : Matroska
Format version              : Version 4
File size                   : 5.32 GiB
Duration                    : 2 h 14 min
Overall bit rate            : 5 662 kb/s
Movie name                  : Black Panther 4K
Encoded date                : UTC 2018-05-13 18:31:38
Writing application         : mkvmerge v20.0.0 ('I Am The Sun') 64-bit
Writing library             : libebml v1.3.5 + libmatroska v1.4.8
Cover                       : Yes
Attachments                 : cover.jpg

Video
ID                          : 1
Format                      : HEVC
Format/Info                 : High Efficiency Video Coding
Format profile              : Main 10@L5@Main
Codec ID                    : V_MPEGH/ISO/HEVC
Duration                    : 2 h 14 min
Bit rate                    : 4 958 kb/s
Width                       : 3 840 pixels
Height                      : 2 160 pixels
Display aspect ratio        : 16:9
Frame rate mode             : Constant
Frame rate                  : 23.976 (24000/1001) FPS
Color space                 : YUV
Chroma subsampling          : 4:2:0
Bit depth                   : 10 bits
Bits/(Pixel*Frame)          : 0.025
Stream size                 : 4.66 GiB (88%)
Title                       : [WMAN-LorD]
Language                    : English
Default                     : Yes
Forced                      : No
Color range                 : Limited
Color primaries             : BT.2020
Transfer characteristics    : PQ
Matrix coefficients         : BT.2020 non-constant

Audio
ID                          : 2
Format                      : AC-3
Format/Info                 : Audio Coding 3
Commercial name             : Dolby Digital
Codec ID                    : A_AC3
Duration                    : 2 h 14 min
Bit rate mode               : Constant
Bit rate                    : 640 kb/s
Channel(s)                  : 6 channels
Channel layout              : L R C LFE Ls Rs
Sampling rate               : 48.0 kHz
Frame rate                  : 31.250 FPS (1536 SPF)
Compression mode            : Lossy
Stream size                 : 616 MiB (11%)
Title                       : AC3 5.1
Language                    : English
Service kind                : Complete Main
Default                     : No
Forced                      : No

Text #1
ID                          : 3
Format                      : UTF-8
Codec ID                    : S_TEXT/UTF8
Codec ID/Info               : UTF-8 Plain Text
Duration                    : 2 h 14 min
Bit rate                    : 41 b/s
Count of elements           : 1385
Stream size                 : 40.7 KiB (0%)
Title                       : Portuguese Brazil
Language                    : Portuguese
Default                     : Yes
Forced                      : No

Text #2
ID                          : 4
Format                      : PGS
Muxing mode                 : zlib
Codec ID                    : S_HDMV/PGS
Codec ID/Info               : Picture based subtitle format used on BDs/HD-DVDs
Duration                    : 2 h 10 min
Bit rate                    : 853 b/s
Count of elements           : 136
Stream size                 : 816 KiB (0%)
Title                       : English (Forced only)
Language                    : English
Default                     : No
Forced                      : Yes

Text #3
ID                          : 5
Format                      : PGS
Muxing mode                 : zlib
Codec ID                    : S_HDMV/PGS
Codec ID/Info               : Picture based subtitle format used on BDs/HD-DVDs
Duration                    : 2 h 14 min
Bit rate                    : 32.4 kb/s
Count of elements           : 3670
Stream size                 : 31.0 MiB (1%)
Title                       : English (SDH)
Language                    : English
Default                     : No
Forced                      : No

Text #4
ID                          : 6
Format                      : PGS
Muxing mode                 : zlib
Codec ID                    : S_HDMV/PGS
Codec ID/Info               : Picture based subtitle format used on BDs/HD-DVDs
Duration                    : 2 h 14 min
Bit rate                    : 27.4 kb/s
Count of elements           : 2946
Stream size                 : 26.3 MiB (0%)
Title                       : French
Language                    : French
Default                     : No
Forced                      : No

Text #5
ID                          : 7
Format                      : PGS
Muxing mode                 : zlib
Codec ID                    : S_HDMV/PGS
Codec ID/Info               : Picture based subtitle format used on BDs/HD-DVDs
Duration                    : 2 h 14 min
Bit rate                    : 26.9 kb/s
Count of elements           : 2906
Stream size                 : 25.8 MiB (0%)
Title                       : Spanish (Latin American)
Language                    : Spanish
Default                     : No
Forced                      : No

Text #6
ID                          : 8
Format                      : PGS
Muxing mode                 : zlib
Codec ID                    : S_HDMV/PGS
Codec ID/Info               : Picture based subtitle format used on BDs/HD-DVDs
Duration                    : 2 h 14 min
Bit rate                    : 16.2 kb/s
Count of elements           : 2908
Stream size                 : 15.6 MiB (0%)
Title                       : Chinese (Cantonese)
Language                    : Chinese
Default                     : No
Forced                      : No

Text #7
ID                          : 9
Format                      : PGS
Muxing mode                 : zlib
Codec ID                    : S_HDMV/PGS
Codec ID/Info               : Picture based subtitle format used on BDs/HD-DVDs
Duration                    : 2 h 14 min
Bit rate                    : 13.4 kb/s
Count of elements           : 2930
Stream size                 : 12.9 MiB (0%)
Title                       : Korean
Language                    : Korean
Default                     : No
Forced                      : No

Text #8
ID                          : 10
Format                      : PGS
Muxing mode                 : zlib
Codec ID                    : S_HDMV/PGS
Codec ID/Info               : Picture based subtitle format used on BDs/HD-DVDs
Duration                    : 2 h 14 min
Bit rate                    : 16.1 kb/s
Count of elements           : 2912
Stream size                 : 15.5 MiB (0%)
Title                       : Thai
Language                    : Thai
Default                     : No
Forced                      : No

Text #9
ID                          : 11
Format                      : PGS
Muxing mode                 : zlib
Codec ID                    : S_HDMV/PGS
Codec ID/Info               : Picture based subtitle format used on BDs/HD-DVDs
Duration                    : 2 h 14 min
Bit rate                    : 17.8 kb/s
Count of elements           : 2998
Stream size                 : 17.1 MiB (0%)
Title                       : Chinese (Mandarin Traditional)
Language                    : Chinese
Default                     : No
Forced                      : No

[/code]







  User comments

No comments have been posted yet.


Post anonymous comment
:) :( :D :P :-) B) 8o :? 8) ;) :-* :-( :| O:-D :-@ :facepalm :o) brb :warn :help :bad :love :idea :bomb :!


CAPTCHA Image