Torrent details for "Anthropoid (2016)Mp-4 X264 Dvd-Rip 480p AAC [DSD]"    Log in to bookmark

Loading...
Loading...
Torrent details
Cover
Download
Torrent rating (0 rated)
Controls:
Category:
Language:
English English
Total Size:
1.12 GB
Info Hash:
26af54eb9c2711c4fae98e6198464219c2eb1c7e
Added By:
Added:  
23-05-2020 01:04
Views:
152
Health:
Seeds:
4
Leechers:
1
Completed:
13

File List (1) : 
Title:
Anthropoid (2016)
Genre:
Biography, History, Thriller, War
Runtime:
120 min    -    Rating: 7.2
Director:
Plot:
ANTHROPOID is based on the extraordinary true story of Operation Anthropoid, the World War II mission to assassinate SS General Reinhard Heydrich. The Reich's third in command after Hitler and Himmler, Heydrich was the main architect behind the Final Solution and the leader of occupying Nazi forces in Czechoslovakia whose reign of terror prompted self-exiled Czech and Slovak soldiers (played by Cillian Murphy and Jamie Dornan) to hatch a top-secret mission that would change the face of Europe forever.i

Description




Anthropoid (2016)
480p Dvd Rip
Hash Code:
26AF54EB9C2711C4FAE98E6198464219C2EB1C7E








^Tap on image for IMDb Info for this film^

General
Complete name                            : Anthropoid_Title2.mp4
Format                                   : MPEG-4
Format profile                           : Base Media
Codec ID                                 : isom (isom/iso2/avc1/mp41)
File size                                : 1.12 GiB
Duration                                 : 2 h 0 min
Overall bit rate                         : 1 327 kb/s
Movie name                               : Anthropoid
Genre                                    : War
Writing application                      : Lavf54.6.100

Video
ID                                       : 1
Format                                   : AVC
Format/Info                              : Advanced Video Codec
Format profile                           : Baseline@L3
Format settings                          : 6 Ref Frames
Format settings, CABAC                   : No
Format settings, Reference frames        : 6 frames
Codec ID                                 : avc1
Codec ID/Info                            : Advanced Video Coding
Duration                                 : 2 h 0 min
Bit rate                                 : 1 192 kb/s
Width                                    : 720 pixels
Height                                   : 404 pixels
Display aspect ratio                     : 16:9
Frame rate mode                          : Constant
Frame rate                               : 29.970 (30000/1001) FPS
Color space                              : YUV
Chroma subsampling                       : 4:2:0
Bit depth                                : 8 bits
Scan type                                : Progressive
Bits/(Pixel*Frame)                       : 0.137
Stream size                              : 1.01 GiB (90%)
Codec configuration box                  : avcC

Audio
ID                                       : 2
Format                                   : AAC LC
Format/Info                              : Advanced Audio Codec Low Complexity
Codec ID                                 : mp4a-40-2
Duration                                 : 2 h 0 min
Bit rate mode                            : Constant
Bit rate                                 : 128 kb/s
Channel(s)                               : 2 channels
Channel layout                           : L R
Sampling rate                            : 44.1 kHz
Frame rate                               : 43.066 FPS (1024 SPF)
Compression mode                         : Lossy
Stream size                              : 111 MiB (10%)
Default                                  : Yes
Alternate group                          : 1

Similar torrents

Name 
DL
Uploader
Size 
S/L 
Added

  User comments

No comments have been posted yet.


Post anonymous comment
:) :( :D :P :-) B) 8o :? 8) ;) :-* :-( :| O:-D :-@ :facepalm :o) brb :warn :help :bad :love :idea :bomb :!


CAPTCHA Image