Torrent details for "Grantchester S05 1080P RB58"    Log in to bookmark

Loading...
Loading...
Torrent details
Cover
Download
Torrent rating (0 rated)
Controls:
Category:
Language:
English English
Total Size:
6.01 GB
Info Hash:
d1eb945fe95de9de3f05723bceb87413f762cb2e
Added By:
Added:  
15-02-2020 01:25
Views:
201
Health:
Seeds:
26
Leechers:
20
Completed:
93

File List (9) : 
Title:
Genre:
Crime, Drama, Mystery
Runtime:
45 min    -    Rating: 8
Director:
n/A
Plot:
It's 1953, and Sidney Chambers is vicar of Grantchester, a village just outside Cambridge. Sidney's life is a quiet life - right up until the moment that murder comes his way. Pushed into the dangerous world of lies, betrayal and murder, Sidney quickly finds that his insight into the human condition, and the natural trust that he engenders in people, means that he excels in his new position as 'detective'. Joining Sidney as he journeys into this dark world is the affable but world-weary Detective Inspector Geordie Keating, the naive, but well-meaning curate Leonard Finch, and his austere and constantly disapproving housekeeper Mrs Maguire. But crime isn't the only matter that occupies Sidney. He's smitten with the witty, beautiful, Amanda, but could high society Amanda ever be allowed to marry a lowly country vicar? Can you still see the best in people when the world of murder asks you to see the worst?

Description
Grantchester S05 1080P x264 mp4

https://www.imdb.com/title/tt3747572/

Thank you for your kind comments and feedback on my other torrents, your feedback is welcome.

About the Series:
Reverend Will Davenport (Tom Brittney ), works with the overworked Detective Inspector Geordie
Keating (Robson Green) to forge an unlikely partnership in solving crimes.
Keating's gruff, methodical approach to policing complements Davenport' more intuitive techniques
of coaxing information from witnesses and suspects.

I hope you enjoy.





Technical:

General
Complete name                            : I:\Grantchester S05\Grantchester S05E01 1080P x264 RB58.mp4
Format                                   : MPEG-4
Format profile                           : Base Media
Codec ID                                 : isom
File size                                : 1 022 MiB
Duration                                 : 45mn 31s
Overall bit rate mode                    : Variable
Overall bit rate                         : 3 139 Kbps
Writing application                      : VideoReDo (Lavf57.71.100)

Video
ID                                       : 1
Format                                   : AVC
Format/Info                              : Advanced Video Codec
Format profile                           : High@L4
Format settings, CABAC                   : Yes
Format settings, ReFrames                : 4 frames
Codec ID                                 : avc1
Codec ID/Info                            : Advanced Video Coding
Duration                                 : 45mn 31s
Bit rate                                 : 3 000 Kbps
Width                                    : 1 920 pixels
Height                                   : 1 080 pixels
Display aspect ratio                     : 16:9
Frame rate mode                          : Constant
Frame rate                               : 25.000 fps
Color space                              : YUV
Chroma subsampling                       : 4:2:0
Bit depth                                : 8 bits
Scan type                                : MBAFF
Scan order                               : Top Field First
Bits/(Pixel*Frame)                       : 0.058
Stream size                              : 977 MiB (96%)
Writing library                          : x264 core 152 r2245
Encoding settings                        : cabac=1 / ref=2 / deblock=1:0:0

Audio
ID                                       : 2
Format                                   : AAC
Format/Info                              : Advanced Audio Codec
Format profile                           : LC
Codec ID                                 : 40
Duration                                 : 45mn 31s
Duration_LastFrame                       : -21ms
Bit rate mode                            : Variable
Bit rate                                 : 125 Kbps
Maximum bit rate                         : 128 Kbps
Channel(s)                               : 2 channels
Channel positions                        : Front: L R
Sampling rate                            : 48.0 KHz
Compression mode                         : Lossy
Stream size                              : 40.8 MiB (4%)
Language                                 : English

Similar torrents

Name 
DL
Uploader
Size 
S/L 
Added
-
6.04 GB
1,369
[11/0]
16/02/19 01:34
-
182.77 MB
255
[11/3]
24/01/20 22:22
-
229.77 MB
391
[10/1]
10/01/20 22:30
-
208.10 MB
223
[10/6]
31/01/20 22:34
-
235.58 MB
234
[6/2]
18/01/20 01:09
-
191.24 MB
143
[5/2]
14/02/20 22:22
-
206.99 MB
133
[5/2]
08/02/20 16:28
-
192.97 MB
503
[2/1]
08/02/19 23:07
-
198.21 MB
466
[1/0]
01/02/19 22:17

  User comments

Posted: 2020-02-15 17:57:26 (2Days ago) Report

avatar
Reppoints: 5
Thanks for Grantchester, Shakespeare and Hathaway, and Silent Witness, really appreciate the 1080p, best wishes,

Charley


Post anonymous comment
:) :( :D :P :-) B) 8o :? 8) ;) :-* :-( :| O:-D :-@ :facepalm :o) brb :warn :help :bad :love :idea :bomb :!


CAPTCHA Image