Torrent details for "Legacies S02E13 You Can't Save Them All (1080p AMZN Webrip x265 10bit EAC3 5.1 - Goki)[TAoE].mkv"    Log in to bookmark

Loading...
Loading...
Torrent details
Cover
Download
Torrent rating (0 rated)
Controls:
Category:
Language:
English English
Total Size:
869.47 MB
Info Hash:
985cedd4257050b0d8083954d285336f6bda220d
Added By:
Goki:_trusted_uploader::_junkie:  
Added:  
15-02-2020 00:11
Views:
1,017
Health:
Seeds:
11
Leechers:
7
Completed:
148

File List (1) : 
Title:
Legacies (2018)
Genre:
Adventure, Drama, Fantasy, Horror, Mystery
Runtime:
45 min    -    Rating: 9.1
Director:
n/A
Plot:
'Legacies' is a 2018 spin-off of 'The Vampire Diaries' and 'The Originals'. Hope Mikaelson, the daughter of a werewolf, vampire and granddaughter of a witch attends the Salvatore School in Mystic Falls, while dealing with everyday teen life and controlling the power of living as the only tribrid in existence.

Description





Legacies (2018) IMDB












Media Information

Unique ID                                : 81262190540371276296095131071002197191 (0x3D22875309E929CF8EAF234341503CC7)
Complete name                            : Legacies S02E13 You Can't Save Them All (1080p AMZN Webrip x265 10bit EAC3 5.1 - Goki)[TAoE].mkv
Format                                   : Matroska
Format version                           : Version 4
File size                                : 869 MiB
Duration                                 : 42 min 24 s
Overall bit rate                         : 2 866 kb/s
Movie name                               : Legacies S02E13 You Can't Save Them All (1080p AMZN Webrip x265 10bit EAC3 5.1 - Goki)[TAoE].mkv
Encoded date                             : UTC 2020-02-14 23:16:31
Writing application                      : mkvmerge v28.2.0 ('The Awakening') 64-bit
Writing library                          : libebml v1.3.6 + libmatroska v1.4.9

Video
ID                                       : 1
Format                                   : HEVC
Format/Info                              : High Efficiency Video Coding
Format profile                           : Main 10@L4@Main
Codec ID                                 : V_MPEGH/ISO/HEVC
Duration                                 : 42 min 24 s
Bit rate                                 : 2 224 kb/s
Width                                    : 1 920 pixels
Height                                   : 1 080 pixels
Display aspect ratio                     : 16:9
Frame rate mode                          : Constant
Frame rate                               : 23.976 (24000/1001) FPS
Color space                              : YUV
Chroma subsampling                       : 4:2:0
Bit depth                                : 10 bits
Bits/(Pixel*Frame)                       : 0.045
Stream size                              : 675 MiB (78%)
Writing library                          : x265 3.2.1+3-b4b2ecac21f6:[Windows][MSVC 1924][64 bit] 10bit
Encoding settings                        : cpuid=1111039 / frame-threads=2 / numa-pools=6 / wpp / no-pmode / no-pme / no-psnr / no-ssim / log-level=2 / input-csp=1 / input-res=1920x1080 / interlace=0 / total-frames=0 / level-idc=0 / high-tier=1 / uhd-bd=0 / ref=4 / no-allow-non-conformance / no-repeat-headers / annexb / no-aud / no-hrd / info / hash=0 / no-temporal-layers / open-gop / min-keyint=23 / keyint=250 / gop-lookahead=0 / bframes=8 / b-adapt=2 / b-pyramid / bframe-bias=0 / rc-lookahead=80 / lookahead-slices=4 / scenecut=40 / radl=0 / no-splice / no-intra-refresh / ctu=64 / min-cu-size=8 / no-rect / no-amp / max-tu-size=32 / tu-inter-depth=1 / tu-intra-depth=1 / limit-tu=0 / rdoq-level=2 / dynamic-rd=0.00 / no-ssim-rd / signhide / no-tskip / nr-intra=0 / nr-inter=0 / no-constrained-intra / no-strong-intra-smoothing / max-merge=3 / limit-refs=3 / limit-modes / me=3 / subme=5 / merange=57 / temporal-mvp / no-hme / weightp / no-weightb / no-analyze-src-pics / deblock=0:0 / sao / no-sao-non-deblock / rd=4 / selective-sao=4 / no-early-skip / rskip / no-fast-intra / no-tskip-fast / no-cu-lossless / no-b-intra / no-splitrd-skip / rdpenalty=0 / psy-rd=1.30 / psy-rdoq=2.00 / no-rd-refine / no-lossless / cbqpoffs=0 / crqpoffs=0 / rc=crf / crf=21.0 / qcomp=0.60 / qpstep=4 / stats-write=0 / stats-read=0 / ipratio=1.40 / pbratio=1.30 / aq-mode=2 / aq-strength=1.10 / cutree / zone-count=0 / no-strict-cbr / qg-size=32 / no-rc-grain / qpmax=69 / qpmin=0 / no-const-vbv / sar=1 / overscan=0 / videoformat=5 / range=0 / colorprim=2 / transfer=2 / colormatrix=2 / chromaloc=0 / display-window=0 / cll=0,0 / min-luma=0 / max-luma=1023 / log2-max-poc-lsb=8 / vui-timing-info / vui-hrd-info / slices=1 / no-opt-qp-pps / no-opt-ref-list-length-pps / no-multi-pass-opt-rps / scenecut-bias=0.05 / no-opt-cu-delta-qp / no-aq-motion / no-hdr / no-hdr-opt / no-dhdr10-opt / no-idr-recovery-sei / analysis-reuse-level=5 / scale-factor=0 / refine-intra=0 / refine-inter=0 / refine-mv=1 / refine-ctu-distortion=0 / no-limit-sao / ctu-info=0 / no-lowpass-dct / refine-analysis-type=0 / copy-pic=1 / max-ausize-factor=1.0 / no-dynamic-refine / no-single-sei / no-hevc-aq / no-svt / no-field / qp-adaptation-range=1.00
Default                                  : Yes
Forced                                   : No

Audio
ID                                       : 2
Format                                   : E-AC-3
Format/Info                              : Enhanced AC-3
Commercial name                          : Dolby Digital Plus
Codec ID                                 : A_EAC3
Duration                                 : 42 min 24 s
Bit rate mode                            : Constant
Bit rate                                 : 640 kb/s
Channel(s)                               : 6 channels
Channel layout                           : L R C LFE Ls Rs
Sampling rate                            : 48.0 kHz
Frame rate                               : 31.250 FPS (1536 SPF)
Compression mode                         : Lossy
Stream size                              : 194 MiB (22%)
Title                                    : English
Language                                 : English
Service kind                             : Complete Main
Default                                  : Yes
Forced                                   : No

Text
ID                                       : 3
Format                                   : UTF-8
Codec ID                                 : S_TEXT/UTF8
Codec ID/Info                            : UTF-8 Plain Text
Duration                                 : 41 min 36 s
Bit rate                                 : 72 b/s
Count of elements                        : 834
Stream size                              : 22.0 KiB (0%)
Language                                 : English
Default                                  : No
Forced                                   : No

Source
1080p AMZN WEB-DL GHOSTS
199349229477096644267940598016211821789 (0x95F943D9ED36E20FD0CBBF43108A24DD)

.........................................................................................................................................


Hello everyone,
We are TAoE, a small team of passionate encoders who love encoding. We try our best to provide you with high quality releases.
If you would like to join the team just drop us a comment or send us a message.



.........................................................................................................................................


Similar torrents

Name 
DL
Uploader
Size 
S/L 
Added
-
146.70 MB
389
[215/114]
14/02/20 07:27
-
2.38 GB
237
[60/59]
14/02/20 06:33
-
759.59 MB
146
[48/30]
14/02/20 06:55
-
389.71 MB
4,500
[32/65]
14/02/20 06:21
-
161.58 MB
171
[5/3]
14/02/20 16:28
-
346.09 MB
136
[4/5]
14/02/20 16:16

  User comments

No comments have been posted yet.


Post anonymous comment
:) :( :D :P :-) B) 8o :? 8) ;) :-* :-( :| O:-D :-@ :facepalm :o) brb :warn :help :bad :love :idea :bomb :!


CAPTCHA Image