Torrent details for "Crackerjack (BBC, 2020) S01E05 (1280x720p HD, 50fps, soft Eng subs) "    Log in to bookmark

Loading...
Loading...
Torrent details
Cover
Download
Torrent rating (0 rated)
Controls:
Category:
Language:
English English
Total Size:
1.59 GB
Info Hash:
2e830afc21d9b6410c83d90aaebe7f2d9b72da76
Added By:
Added:  
14-02-2020 23:26
Views:
95
Health:
Seeds:
0
Leechers:
0
Completed:
2

File List (8) : 

Description
Crackerjack (BBC, 2020) S01E05 (1280x720p HD, 50fps, soft Eng subs)

Sam and Mark are joined in the Crackerjack studio by Britain's Got Talent champions Twist and Pulse, who take part in the sketches and incredibly messy game Splatterjack. There is music from KidzBop, comedy performances, Snap N' Whack and the mighty Double or Drop.

First broadcast:  14 February 2020
Duration:  45 minutes

Torrent dead? Request reseed at torrentgalaxy.org - or ask at elsonroa at tutanota.com



Media info:-
General
Format : MPEG-4
Format profile : Base Media
Codec ID : isom (isom/iso2/avc1/mp41)
File size : 1.59 GiB
Duration : 43mn 49s
Overall bit rate : 5 205 Kbps

Video
ID : 1
Format : AVC
Format/Info : Advanced Video Codec
Format profile : High@L3.2
Format settings, CABAC : Yes
Format settings, ReFrames : 4 frames
Codec ID : avc1
Codec ID/Info : Advanced Video Coding
Duration : 43mn 49s
Bit rate : 5 069 Kbps
Width : 1 280 pixels
Height : 720 pixels
Display aspect ratio : 16:9
Frame rate mode : Constant
Frame rate : 50.000 fps
Color space : YUV
Chroma subsampling : 4:2:0
Bit depth : 8 bits
Scan type : Progressive
Bits/(Pixel*Frame) : 0.110
Stream size : 1.55 GiB (97%)
Encoded date : UTC 1904-01-01 00:00:00
Tagged date : UTC 1904-01-01 00:00:00
Color range : Limited
Color primaries : BT.709
Transfer characteristics : BT.709
Matrix coefficients : BT.709

Audio
ID : 2
Format : AAC
Format/Info : Advanced Audio Codec
Format profile : LC
Codec ID : 40
Duration : 43mn 49s
Bit rate mode : Constant
Bit rate : 128 Kbps
Channel(s) : 2 channels
Channel positions : Front: L R
Sampling rate : 48.0 KHz
Frame rate : 46.875 fps (1024 spf)
Compression mode : Lossy
Stream size : 40.1 MiB (2%)
Language : English


Similar torrents

  No similar torrents were found.

  User comments

No comments have been posted yet.


Post anonymous comment
:) :( :D :P :-) B) 8o :? 8) ;) :-* :-( :| O:-D :-@ :facepalm :o) brb :warn :help :bad :love :idea :bomb :!


CAPTCHA Image