Torrent details for "Troop.Zero.2020.2160p.NF.WEBRip.DDP5.1.x264-AJP69"    Log in to bookmark

Loading...
Loading...
Torrent details
Cover
Download
Torrent rating (0 rated)
Controls:
Category:
Language:
English English
Total Size:
21.93 GB
Info Hash:
dc9d3bc76996bcec6cb60f3019f897fc569577a6
Added By:
Added:  
19-01-2020 23:17
Views:
1,066
Health:
Seeds:
0
Leechers:
0
Completed:
19

File List (2) : 
Title:
Troop Zero (2019)
Genre:
Comedy, Drama, Family
Runtime:
94 min    -    Rating: 7.1
Director:
Plot:
In rural 1977 Georgia, a misfit girl dreams of life in outer space. When a national competition offers her a chance at her dream, to be recorded on NASA's Golden Record, she recruits a makeshift troop of Birdie Scouts, forging friendships that last a lifetime and beyond.

Description


Troop Zero (2019)



General
Complete name                            : Troop.Zero.2020.2160p.AMZN.WEBRip.DDP5.1.x264-AJP69/Troop.Zero.2020.2160p.AMZN.WEBRip.DD+5.1.x264-AJP69.mkv
Format                                   : Matroska
Format version                           : Version 4 / Version 2
File size                                : 21.9 GiB
Duration                                 : 1 h 37 min
Overall bit rate                         : 32.2 Mb/s
Encoded date                             : UTC 2020-01-18 03:57:04
Writing application                      : mkvmerge v42.0.0 ('Overtime') 64-bit
Writing library                          : libebml v1.3.10 + libmatroska v1.5.2

Video
ID                                       : 1
Format                                   : AVC
Format/Info                              : Advanced Video Codec
Format profile                           : High@L5.1
Format settings, CABAC                   : Yes
Format settings, ReFrames                : 7 frames
Codec ID                                 : V_MPEG4/ISO/AVC
Duration                                 : 1 h 37 min
Bit rate                                 : 31.6 Mb/s
Width                                    : 3 840 pixels
Height                                   : 1 600 pixels
Display aspect ratio                     : 2.40:1
Frame rate mode                          : Constant
Frame rate                               : 23.976 (24000/1001) FPS
Color space                              : YUV
Chroma subsampling                       : 4:2:0
Bit depth                                : 8 bits
Scan type                                : Progressive
Bits/(Pixel*Frame)                       : 0.214
Stream size                              : 21.5 GiB (98%)
Writing library                          : x264 core 158 r2984 3759fcb
Encoding settings                        : cabac=1 / ref=7 / deblock=1:-3:-3 / analyse=0x3:0x133 / me=umh / subme=10 / psy=1 / psy_rd=1.00:0.00 / mixed_ref=1 / me_range=48 / chroma_me=1 / trellis=2 / 8x8dct=1 / cqm=0 / deadzone=21,11 / fast_pskip=0 / chroma_qp_offset=-2 / threads=24 / lookahead_threads=4 / sliced_threads=0 / nr=0 / decimate=0 / interlaced=0 / bluray_compat=0 / constrained_intra=0 / bframes=8 / b_pyramid=2 / b_adapt=2 / b_bias=0 / direct=3 / weightb=1 / open_gop=0 / weightp=2 / keyint=250 / keyint_min=23 / scenecut=40 / intra_refresh=0 / rc=crf / mbtree=0 / crf=17.0 / qcomp=0.60 / qpmin=0 / qpmax=69 / qpstep=4 / ip_ratio=1.30 / pb_ratio=1.20 / aq=3:0.80
Default                                  : Yes
Forced                                   : No

Audio
ID                                       : 2
Format                                   : E-AC-3
Format/Info                              : Enhanced Audio Coding 3
Format settings, Endianness              : Big
Codec ID                                 : A_EAC3
Duration                                 : 1 h 37 min
Bit rate mode                            : Constant
Bit rate                                 : 640 kb/s
Channel(s)                               : 6 channels
Channel positions                        : Front: L C R, Side: L R, LFE
Sampling rate                            : 48.0 kHz
Frame rate                               : 187.500 FPS (256 spf)
Compression mode                         : Lossy
Stream size                              : 446 MiB (2%)
Language                                 : English
Default                                  : Yes
Forced                                   : No

Subtitles - Yes English, Arabic, Danish, Spanish, Finnish, French, Hindi, Indonesian,
Italian, Norwegian Bokmal, Dutch, Polish, Portuguese, Russian, Tamil, Telugu, Thai, Turkish, Chinese

Source - NetFlix

Encoded By - AJP69

https://www.imdb.com/title/tt2404465/



Stars: Mckenna Grace, Viola Davis, Jim Gaffigan



In rural 1977 Georgia, a misfit girl dreams of life in outer space. When a competition offers her a chance to be recorded on NASA's Golden Record, she recruits a makeshift troop of Birdie Scouts, forging friendships that last a lifetime.








  User comments

No comments have been posted yet.


Post anonymous comment
:) :( :D :P :-) B) 8o :? 8) ;) :-* :-( :| O:-D :-@ :facepalm :o) brb :warn :help :bad :love :idea :bomb :!


CAPTCHA Image 

  Sitefriends