Torrent details for "Steptoe And Son Series 03 Complete DVDrip (sq@TGx)"    Log in to bookmark

Loading...
Loading...
Torrent details
Cover
Download
Torrent rating (0 rated)
Controls:
Category:
Language:
English English
Total Size:
1.67 GB
Info Hash:
c9b92d4d54decca3b0c10f595e8b1be464162c4d
Added By:
square:_trusted_uploader::_sitelover::_junkie::_turtle:  
Added:  
09-10-2019 15:09 (edited 09-10-2019 15:28) by square:_trusted_uploader::_sitelover::_junkie::_turtle:
Views:
175
Health:
Seeds:
9
Leechers:
3
Completed:
98

File List (9) : 
Title:
Genre:
Comedy
Runtime:
45 min    -    Rating: 7.8
Director:
n/A
Plot:
A thirty-something year-old man named Harold and his elderly father, Albert, work as rag and bone men (collecting and selling junk). Harold is ambitious and wants to better himself, but his father always seems to ruin his plans, sometimes accidentally and other times deliberately. The pair live in squalor and the father has some disgusting personal habits which continue to embarrass the son.

Description
Steptoe & Son Series 3 Complete
Enjoy

For similar torrents please follow the link , many thanks
https://torrentgalaxy.to/torrents.php?search=sq%40tgx

All seven episodes from the third series of the classic BBC television comedy about the father and son who run a junkyard and scrap metal business. In 'Homes Fit For Heroes', Harold (Harry H. Corbett) tries to persuade Albert (Wilfrid Brambell) to go into an old people's home. In 'The Wooden Overcoats', Harold acquires a job lot of coffins. In 'The Lead Man Cometh', a conman (played by Leonard Rossiter) tries to sell the scrap dealers some cheap lead - which he has just stolen from their own house. In 'Steptoe a la Cart', Harold falls for a French girl. In 'Sunday For Seven Days', Harold decides to ruin Albert's cinema night. In 'The Bonds That Bind Us', one of Albert's bonds comes up and nets the scrap dealers some money. Finally, in 'The Lodger', Harold threatens to leave after Albert advertises for a lodger.
Fresh from their success with Tony Hancock, writers Ray Galton and Alan Simpson originally planned Steptoe and Son as a one-off for the BBC’s Comedy Playhouse. It was quickly turned into a series, originally broadcast in 1962, and the six episodes here (including the Comedy Playhouse "pilot") contain all the classic ingredients that were to keep the show on British TV screens until 1974. Harry H. Corbett and Wilfrid Brambell are the father and son rag and bone men, constantly bickering, constantly at each other’s throats. Corbett’s Harold harbours ridiculous bourgeois aspirations, hoping to impress the "birds" with asparagus soup or his wine cellar, which has been painstakingly collected by draining the dregs of empty bottles. But all his efforts at social improvement are in vain, thanks to the mean-spirited efforts of his father Albert, who glories in his son’s contemptuous "dirty old man" tag, and who is content with life exactly as it is in the cast-off paradise of their ramshackle junk-filled boneyard.
The show was groundbreaking at the time, depicting working-class people in light comedy instead of serious social drama as was the norm. It also differed significantly from Hancock’s Half Hour and other sitcoms, which featured comedians effectively playing themselves: Brambell and Corbett were real actors whose marvellous chemistry helped ensure the show’s longevity. In our modern throwaway culture, Steptoe and Son provides a window into a bygone era, when men with horses and carts routinely patrolled the streets recycling junk, without the need for government incentives or environmental pressure.

https://www.imdb.com/title/tt0057785/episodes?season=3






Format                                   : MPEG-4
Format profile                           : Base Media
Codec ID                                 : isom (mp41/avc1)
File size                                : 423 MiB
Duration                                 : 25 min 32 s
Overall bit rate                         : 2 317 kb/s
Encoded date                             : UTC 2019-09-21 16:59:24
Tagged date                              : UTC 2019-09-21 16:59:24
Writing application                      : vlc 3.0.8 stream output

Video
ID                                       : 2
Format                                   : AVC
Format/Info                              : Advanced Video Codec
Format profile                           : High@L3
Format settings                          : CABAC / 4 Ref Frames
Format settings, CABAC                   : Yes
Format settings, Reference frames        : 4 frames
Codec ID                                 : avc1
Codec ID/Info                            : Advanced Video Coding
Duration                                 : 25 min 32 s
Bit rate                                 : 2 182 kb/s
Width                                    : 720 pixels
Height                                   : 576 pixels
Display aspect ratio                     : 4:3
Frame rate mode                          : Constant
Frame rate                               : 25.000 FPS
Standard                                 : PAL
Color space                              : YUV
Chroma subsampling                       : 4:2:0
Bit depth                                : 8 bits
Scan type                                : Progressive
Bits/(Pixel*Frame)                       : 0.210
Stream size                              : 399 MiB (94%)
Writing library                          : x264 core 155
Encoding settings                        : cabac=1 / ref=3 / deblock=1:0:0 / analyse=0x3:0x13 / me=hex / subme=7 / psy=1 / psy_rd=1.00:0.00 / mixed_ref=1 / me_range=16 / chroma_me=1 / trellis=1 / 8x8dct=1 / cqm=0 / deadzone=21,11 / fast_pskip=1 / chroma_qp_offset=-2 / threads=3 / lookahead_threads=1 / sliced_threads=0 / nr=0 / decimate=1 / interlaced=0 / bluray_compat=0 / constrained_intra=0 / bframes=3 / b_pyramid=2 / b_adapt=1 / b_bias=0 / direct=1 / weightb=1 / open_gop=0 / weightp=2 / keyint=250 / keyint_min=25 / scenecut=40 / intra_refresh=0 / rc_lookahead=40 / rc=crf / mbtree=1 / crf=23.0 / qcomp=0.60 / qpmin=10 / qpmax=51 / qpstep=4 / ip_ratio=1.40 / aq=1:1.00
Language                                 : English
Encoded date                             : UTC 2019-09-21 16:59:24
Tagged date                              : UTC 2019-09-21 16:59:24
Color range                              : Limited
Color primaries                          : BT.601 PAL
Matrix coefficients                      : BT.470 System B/G
Codec configuration box                  : avcC

Audio
ID                                       : 1
Format                                   : MPEG Audio
Format version                           : Version 1
Format profile                           : Layer 2
Codec ID                                 : mp4a-6B
Duration                                 : 25 min 32 s
Source duration                          : 25 min 32 s
Bit rate mode                            : Constant
Bit rate                                 : 128 kb/s
Channel(s)                               : 2 channels
Sampling rate                            : 44.1 kHz
Compression mode                         : Lossy
Stream size                              : 23.3 MiB (6%)
Source stream size                       : 23.3 MiB (6%)
Language                                 : English
Encoded date                             : UTC 2019-09-21 16:59:24
Tagged date                              : UTC 2019-09-21 16:59:24
mdhd_Duration                            : 1532508



Similar torrents

Name 
DL
Uploader
Size 
S/L 
Added

  User comments

Posted: 2019-10-09 16:20:38 (1Wk ago) Report

avatar
Reppoints: 0
Thanks You :):):):)


Post anonymous comment
:) :( :D :P :-) B) 8o :? 8) ;) :-* :-( :| O:-D :-@ :facepalm :o) brb :warn :help :bad :love :idea :bomb :!


CAPTCHA Image